<?xml version="1.0" encoding="UTF-8" standalone="no"?>
<!-- Creator: CorelDRAW (Versão OEM) -->

<svg
   xml:space="preserve"
   width="32"
   height="32"
   version="1.1"
   style="clip-rule:evenodd;fill-rule:evenodd;image-rendering:optimizeQuality;shape-rendering:geometricPrecision;text-rendering:geometricPrecision"
   viewBox="0 0 846.66666 846.66664"
   id="svg30"
   sodipodi:docname="logo_instituto_procabelo_04_final_fundoclaro - cópia.svg"
   inkscape:version="1.3 (0e150ed, 2023-07-21)"
   xmlns:inkscape="http://www.inkscape.org/namespaces/inkscape"
   xmlns:sodipodi="http://sodipodi.sourceforge.net/DTD/sodipodi-0.dtd"
   xmlns="http://www.w3.org/2000/svg"
   xmlns:svg="http://www.w3.org/2000/svg"><sodipodi:namedview
   id="namedview30"
   pagecolor="#ffffff"
   bordercolor="#000000"
   borderopacity="0.25"
   inkscape:showpageshadow="2"
   inkscape:pageopacity="0.0"
   inkscape:pagecheckerboard="0"
   inkscape:deskcolor="#d1d1d1"
   inkscape:document-units="mm"
   inkscape:zoom="4.6777393"
   inkscape:cx="58.040857"
   inkscape:cy="32.494329"
   inkscape:window-width="2032"
   inkscape:window-height="731"
   inkscape:window-x="1160"
   inkscape:window-y="555"
   inkscape:window-maximized="0"
   inkscape:current-layer="Camada_x0020_1" />&#10; <defs
   id="defs28">&#10;  <font
   id="FontID1"
   horiz-adv-x="763"
   font-variant="normal"
   style="fill-rule:nonzero"
   font-style="normal"
   font-weight="500"
   horiz-origin-x="0"
   horiz-origin-y="0"
   vert-origin-x="512"
   vert-origin-y="768"
   vert-adv-y="1024">&#10;	<font-face
   font-family="Winden-Medium"
   id="font-face1">&#10;		<font-face-src>&#10;			<font-face-name
   name="Winden W05 Medium" />&#10;		</font-face-src>&#10;	</font-face>&#10;   <missing-glyph
   id="missing-glyph1"><path
     d="M0 0z"
     id="path1" /></missing-glyph>&#10;   <glyph
   unicode="A"
   horiz-adv-x="763"
   d="M762.993 75.0072l-77.9994 0 -268 598.987 -188.997 0 -9.99643 -9.99643 0 -53.9943 9.99643 -9.99643 104.01 0 -238.01 -525 -77.9994 0 -9.99643 -10.0134 0 -54.9974 9.99643 -9.99643 252.002 0 9.99643 9.99643 0 54.9974 -9.99643 10.0134 -81.9945 0 56.0004 127.999 292.991 0 54.9974 -127.999 -81.9945 0 -9.99643 -10.0134 0 -54.9974 9.99643 -9.99643 254.994 0 10.0134 9.99643 0 54.9974 -10.0134 10.0134zm-488.992 199.997l115.996 264.004 114.007 -264.004 -230.003 0z"
   id="glyph1" />&#10;   <glyph
   unicode="C"
   horiz-adv-x="733"
   d="M404.005 -13.9916c118.988,0 215.994,52.9913 278.999,132.997l-2.00609 14.9946 -46.99 37.9966 -16.0147 0c-49.9991,-64.9938 -123.986,-102.99 -210.996,-102.99 -149.997,0 -269.003,109.995 -269.003,268 0,153.993 115.01,268 271.009,268 63.0047,0 130.991,-19.0068 185.002,-54.9974l0 -125.006 9.99643 -9.99643 66.9999 0 9.99643 9.99643 0 157.002 -8.99339 14.9946c-71.9981,60.9986 -171.01,92.008 -265.007,92.008 -205.998,0 -360.994,-151 -360.994,-352 0,-204.009 159.994,-350.997 358.001,-350.997z"
   id="glyph2" />&#10;   <glyph
   unicode="E"
   horiz-adv-x="640"
   d="M56.0004 0l525 0 9.99643 9.99643 0 180.004 -9.99643 9.99643 -66.9999 0 -9.99643 -9.99643 0 -114.993 -278.999 0 0 227.997 224.988 0 10.0134 9.99643 0 53.9943 -10.0134 10.0134 -224.988 0 0 222.999 268 0 0 -106 9.99643 -10.0134 65.9968 0 9.99643 10.0134 0 169.99 -9.99643 9.99643 -512.997 0 -9.99643 -9.99643 0 -53.9943 9.99643 -9.99643 79.0024 0 0 -525 -79.0024 0 -9.99643 -10.0134 0 -54.9974 9.99643 -9.99643z"
   id="glyph3" />&#10;   <glyph
   unicode="I"
   horiz-adv-x="371"
   d="M52.0052 0l268 0 9.99643 9.99643 0 54.9974 -9.99643 10.0134 -88.9988 0 0 525 88.9988 0 9.99643 9.99643 0 53.9943 -9.99643 9.99643 -268 0 -10.0134 -9.99643 0 -53.9943 10.0134 -9.99643 88.9988 0 0 -525 -88.9988 0 -10.0134 -10.0134 0 -54.9974 10.0134 -9.99643z"
   id="glyph4" />&#10;   <glyph
   unicode="L"
   horiz-adv-x="610"
   d="M56.0004 0l516.992 0 10.0134 9.99643 0 186.005 -10.0134 9.99643 -66.9999 0 -9.99643 -9.99643 0 -120.994 -270.992 0 0 525 79.0024 0 9.99643 9.99643 0 53.9943 -9.99643 9.99643 -248.007 0 -9.99643 -9.99643 0 -53.9943 9.99643 -9.99643 79.0024 0 0 -525 -79.0024 0 -9.99643 -10.0134 0 -54.9974 9.99643 -9.99643z"
   id="glyph5" />&#10;   <glyph
   unicode="M"
   horiz-adv-x="915"
   d="M859.999 600.007l9.99643 9.99643 0 53.9943 -9.99643 9.99643 -164.006 0 -13.9916 -9.99643 -229 -403.002 -220.006 403.002 -13.9916 9.99643 -163.003 0 -9.99643 -9.99643 0 -53.9943 9.99643 -9.99643 79.0024 0 0 -525 -79.0024 0 -9.99643 -10.0134 0 -54.9974 9.99643 -9.99643 244.998 0 9.99643 9.99643 0 54.0113 -9.99643 9.99643 -76.9963 0 0 450.995 211.999 -378.997 36.9936 0 219.003 382.992 0 -454.991 -76.9963 0 -9.99643 -9.99643 0 -54.0113 9.99643 -9.99643 244.998 0 9.99643 9.99643 0 54.9974 -9.99643 10.0134 -77.9994 0 0 525 77.9994 0z"
   id="glyph6" />&#10;   <glyph
   unicode="N"
   horiz-adv-x="796"
   d="M751.993 673.994l-247.99 0 -9.99643 -9.99643 0 -53.9943 9.99643 -9.99643 79.0024 0 0 -429.999 -373.999 503.987 -153.007 0 -9.99643 -9.99643 0 -53.9943 9.99643 -9.99643 79.0024 0 0 -525 -79.0024 0 -9.99643 -10.0134 0 -54.9974 9.99643 -9.99643 247.004 0 9.99643 9.99643 0 54.9974 -9.99643 10.0134 -77.9994 0 0 434.998 389.997 -518.998 47.9931 0 10.0134 9.99643 0 599.004 78.9854 0 10.0134 9.99643 0 53.9943 -10.0134 9.99643z"
   id="glyph7" />&#10;   <glyph
   unicode="P"
   horiz-adv-x="657"
   d="M56.0004 0l248.993 0 10.0134 9.99643 0 54.9974 -10.0134 10.0134 -79.9884 0 0 179.987 153.993 0c160.011,0 249.01,75.0072 249.01,210.01 0,126.995 -90.0019,208.99 -249.01,208.99l-322.997 0 -9.99643 -9.99643 0 -53.9943 9.99643 -9.99643 79.0024 0 0 -525 -79.0024 0 -9.99643 -10.0134 0 -54.9974 9.99643 -9.99643zm169.004 327.995l0 272.012 166.998 0c88.9988,0 142.993,-55.0144 142.993,-137.009 0,-88.9988 -53.9943,-135.003 -142.993,-135.003l-166.998 0z"
   id="glyph8" />&#10;   <glyph
   unicode="R"
   horiz-adv-x="696"
   d="M656.993 75.0072l-73.9872 0 -109.009 218c97.0062,21.9989 148.008,86.9927 148.008,181.993 0,124.003 -81.0085,198.994 -233.998,198.994l-332.007 0 -9.99643 -9.99643 0 -53.9943 9.99643 -9.99643 79.0024 0 0 -525 -79.0024 0 -9.99643 -10.0134 0 -54.9974 9.99643 -9.99643 247.004 0 9.99643 9.99643 0 54.9974 -9.99643 10.0134 -77.9994 0 0 207.001 155.999 0 137.995 -272.012 10.9995 -9.99643 126.995 0 10.0134 9.99643 0 54.9974 -10.0134 10.0134zm-431.989 525l176.995 0c81.0085,0 126.995,-53.0083 126.995,-125.006 0,-69.006 -45.987,-121.997 -126.995,-121.997l-176.995 0 0 247.004z"
   id="glyph9" />&#10;   <glyph
   unicode="S"
   horiz-adv-x="611"
   d="M320.005 -13.9916c140.001,0 239.999,76.9963 239.999,193.995 0,148.994 -151,176.995 -266.01,216.997 -69.992,24.005 -129.002,48.9961 -129.002,110.998 0,58.0065 59.0095,101.001 149.011,101.001 52.9913,0 97.9922,-9.99643 135.003,-28.0002l0 -121.997 9.99643 -9.99643 65.9968 0 9.99643 9.99643 0 157.002 -8.99339 15.9977c-48.0101,34.0015 -121.997,57.0035 -210.01,57.0035 -148.994,0 -242.991,-81.0085 -242.991,-188.011 0,-112.987 96.0031,-154.996 175.992,-182.996 109.009,-37.9966 219.003,-51.0022 219.003,-142.007 0,-60.9986 -57.9895,-110.998 -152.99,-110.998 -65.0108,0 -122.014,12.0025 -170.007,42.0088l0 138.998 -9.99643 9.99643 -66.9999 0 -9.99643 -9.99643 0 -171.996 9.99643 -15.9977c57.9895,-49.0131 144.999,-71.9981 252.002,-71.9981l0 0z"
   id="glyph10" />&#10;   <glyph
   unicode="T"
   horiz-adv-x="639"
   d="M187.008 0l265.993 0 9.99643 8.00734 0 56.9865 -9.99643 10.0134 -87.9958 0 0 525 152.99 0 0 -131.008 9.99643 -9.99643 66.9999 0 10.0134 9.99643 0 194.998 -10.0134 9.99643 -551.997 0 -9.99643 -9.99643 0 -194.998 9.99643 -9.99643 66.9999 0 10.0134 9.99643 0 131.008 154.996 0 0 -525 -87.9958 0 -10.0134 -10.0134 0 -56.9865 10.0134 -8.00734z"
   id="glyph11" />&#10;   <glyph
   unicode="X"
   horiz-adv-x="727"
   d="M691.998 75.0072l-87.9958 0 -186.005 265.993 193.009 259.006 74.9902 0 9.99643 9.99643 0 53.9943 -9.99643 9.99643 -272.998 0 -9.99643 -9.99643 0 -53.9943 9.99643 -9.99643 92.994 0 -140.001 -193.009 -134 193.009 86.0067 0 9.99643 9.99643 0 53.9943 -9.99643 9.99643 -272.998 0 -9.99643 -9.99643 0 -53.9943 9.99643 -9.99643 79.0024 0 183.999 -262.015 -194.998 -262.984 -80.0054 0 -9.99643 -10.0134 0 -54.9974 9.99643 -9.99643 265.007 0 9.99643 9.99643 0 54.9974 -9.99643 10.0134 -81.0085 0 142.007 199.997 136.992 -199.997 -85.9897 0 -10.0134 -10.0134 0 -54.9974 10.0134 -9.99643 281.991 0 9.99643 9.99643 0 54.9974 -9.99643 10.0134z"
   id="glyph12" />&#10;   <glyph
   unicode="É"
   horiz-adv-x="640"
   d="M226.994 743l217.014 92.994 4.99821 13.0056 -30.0063 58.0065 -13.9916 3.99517 -212.016 -107.003 -3.99517 -13.9916 24.005 -43.0118 13.9916 -3.99517zm-170.993 -743l525 0 9.99643 9.99643 0 180.004 -9.99643 9.99643 -66.9999 0 -9.99643 -9.99643 0 -114.993 -278.999 0 0 227.997 224.988 0 10.0134 9.99643 0 53.9943 -10.0134 10.0134 -224.988 0 0 222.999 268 0 0 -106 9.99643 -10.0134 65.9968 0 9.99643 10.0134 0 169.99 -9.99643 9.99643 -512.997 0 -9.99643 -9.99643 0 -53.9943 9.99643 -9.99643 79.0024 0 0 -525 -79.0024 0 -9.99643 -10.0134 0 -54.9974 9.99643 -9.99643z"
   id="glyph13" />&#10;   <glyph
   unicode="Ê"
   horiz-adv-x="640"
   d="M199.997 744.003l136.006 79.0024 135.003 -79.0024 13.9916 3.99517 26.0111 40.0027 -5.01522 13.0056 -162.986 108.992 -15.0116 0 -163.989 -108.992 -4.99821 -13.0056 26.9972 -40.0027 13.9916 -3.99517zm381.003 -544.006l-66.9999 0 -9.99643 -9.99643 0 -114.993 -278.999 0 0 227.997 224.988 0 10.0134 9.99643 0 53.9943 -10.0134 10.0134 -224.988 0 0 222.999 268 0 0 -106 9.99643 -10.0134 65.9968 0 9.99643 10.0134 0 169.99 -9.99643 9.99643 -512.997 0 -9.99643 -9.99643 0 -53.9943 9.99643 -9.99643 79.0024 0 0 -525 -79.0024 0 -9.99643 -10.0134 0 -54.9974 9.99643 -9.99643 525 0 9.99643 9.99643 0 180.004 -9.99643 9.99643z"
   id="glyph14" />&#10;  </font>&#10;  <font
   id="FontID0"
   horiz-adv-x="612"
   font-variant="normal"
   class="str0"
   style="fill-rule:nonzero"
   font-style="normal"
   font-weight="400"
   horiz-origin-x="0"
   horiz-origin-y="0"
   vert-origin-x="512"
   vert-origin-y="768"
   vert-adv-y="1024">&#10;	<font-face
   font-family="VELISTA"
   id="font-face14">&#10;		<font-face-src>&#10;			<font-face-name
   name="VELISTA" />&#10;		</font-face-src>&#10;	</font-face>&#10;   <missing-glyph
   id="missing-glyph14"><path
     d="M0 0z"
     id="path14" /></missing-glyph>&#10;   <glyph
   unicode="a"
   horiz-adv-x="612"
   d="M519.002 100.168c5.49836,-20.0015 11.3324,-36.0004 17.1665,-48.1685 5.83035,-12.1643 12.6641,-21.3332 20.4976,-27.6671 7.83348,-6.16607 15.667,-10.1649 23.6683,-12.1643 7.99761,-1.83527 18.1662,-2.83497 30.4984,-2.83497l0 -9.33303 -218.666 0 0 9.33303c15.1671,0 27.1673,0.999702 35.5006,2.83497 8.50119,1.9994 15.3312,6.16607 20.6655,12.5 5.16637,6.3302 7.33363,15.4991 6.83378,27.6671 -0.667711,11.9964 -3.83468,27.9991 -9.33303,48.3326l-82.5015 293.834c-1.9994,-17.8342 -8.33333,-34.3368 -18.8302,-49.336 -10.6685,-14.9993 -23.1685,-27.1673 -37.8357,-36.5003 -14.6673,-9.49717 -30.8341,-19.3338 -48.3326,-29.6665 -17.6664,-10.1649 -34.1652,-19.6658 -49.8321,-28.499 -15.667,-8.83318 -29.6665,-19.8336 -42.1665,-33.1655 -12.6679,-13.3356 -21.1691,-28.0028 -25.6677,-44.0018 -2.33512,-7.49776 -4.16667,-13.6676 -5.33423,-18.4982 -3.66682,-12.6679 -5.66622,-25.3357 -5.99821,-37.6679 -0.335721,-12.3321 2.16726,-25.1679 7.16577,-38.4997 4.99851,-13.3318 12.9999,-25 23.8324,-35.0007 11.0004,-9.83289 26.9994,-18.1662 48.0006,-24.6643 21.0012,-6.50179 46.0012,-9.66876 75.332,-9.66876l0 -9.33303 -282.666 0 0 9.33303c28.6668,0 51.4996,6.00194 68.8339,18.0021 17.1665,11.9964 30.9982,36.3324 40.999,72.8327l158.669 566.331c-16.1668,14.6673 -40.5028,22.0009 -72.6686,22.0009l0 9.33303 154.667 0 167.502 -597.665zm-367.17 112.664c9.5009,12.168 22.1688,23.8362 38.3356,35.1686 16.1668,11.5003 32.1658,21.0012 47.8327,28.6668 15.8348,7.66562 31.6659,16.6667 47.6686,27.3314 15.999,10.5006 29.4987,21.3332 40.8311,32.1695 11.1683,10.9967 19.1659,25.1641 24.1682,42.6664 4.83065,17.6664 4.99851,37.5 0.33199,59.665l-44.3338 159.165c-7.16577,26.3354 -17.1665,46.8368 -29.8344,61.5003l-125 -446.333z"
   id="glyph15" />&#10;   <glyph
   unicode="b"
   horiz-adv-x="619"
   d="M387.668 406.666c25.1641,-0.499851 49.1644,-5.33423 71.9972,-14.3315 23.0006,-9.00104 43.5019,-21.501 61.5003,-37.6679 18.1662,-15.999 32.5015,-36.5003 43.3341,-61.1683 10.6685,-24.8321 15.999,-52.1635 15.999,-81.9979 0,-47.6686 -13.6638,-88.3318 -40.999,-122.169 -27.3314,-33.8332 -64.3315,-58.8332 -111,-75.1641 -46.6652,-16.3347 -100.832,-24.3323 -162.332,-24.5001 -8.83318,0.16786 -36.1683,1.83154 -81.8338,5.16637 -45.6655,3.49896 -74.1682,5.16637 -85.1649,5.16637l-73.3363 0 0 9.33303c20.1694,0 35.1686,1.9994 44.6695,6.00194 9.66503,4.16667 16.8308,12.5 21.4973,25.4999 4.83438,12.832 7.1695,32.4978 7.1695,59.333l0 497.497c0,26.6674 -2.33512,46.501 -7.1695,59.3368 -4.66652,12.832 -11.8323,21.3332 -21.4973,25.332 -9.5009,4.16667 -24.5001,6.16607 -44.6695,6.16607l0 9.33303 73.3363 0c17.4985,0 48.6646,1.66741 93.4982,5.00224 44.6658,3.49896 77.1673,5.16637 97.3329,5.16637 24.5001,0 47.8327,-1.33542 70.1656,-4.16667 22.1688,-2.66711 44.3338,-7.66935 66.1668,-14.6673 21.6689,-7.00164 40.667,-15.8348 56.5018,-26.4996 15.999,-10.8363 28.8347,-24.8359 38.6676,-42.3344 9.83289,-17.3344 14.6673,-37.168 14.6673,-59.333 0,-19.1659 -3.00283,-36.6682 -9.00104,-52.6671 -6.16607,-15.999 -13.4997,-29.1667 -22.5007,-39.3315 -9.00104,-10.3365 -20.3335,-19.6695 -34.1652,-28.167 -13.8354,-8.33333 -27.0031,-15.003 -39.6673,-20.0015 -12.5,-4.83438 -26.8353,-9.5009 -43.1662,-14.1674zm-215.835 285.169l0 -424.668c18.3341,58.5012 62.0001,100.332 131.334,125.332 12.832,4.66652 22.0009,8.00134 27.8312,10.3365 5.83408,2.33139 15.667,6.66592 29.1667,12.9999 13.5034,6.3302 23.8362,12.0001 31.1698,16.9987 7.33363,4.99851 16.3309,12.168 26.8315,21.501 10.6685,9.33303 18.6661,18.6661 24.1682,28.3311 5.66622,9.66876 10.5006,21.1691 14.6673,35.0007 4.3308,13.6676 6.3302,27.9991 6.3302,43.3341 0,21.501 -3.66682,40.667 -10.9967,57.3336 -7.33363,16.8308 -16.6667,30.1664 -28.3348,40.1671 -11.5003,9.83289 -25.1679,17.9984 -40.999,24.1644 -15.667,6.16607 -31.1698,10.3327 -46.1691,12.6679 -14.8314,2.33139 -30.4984,3.33483 -46.833,3.33483 -22.5007,0 -61.8323,-2.16726 -118.166,-6.83378zm94.3338 -692.834c48.1647,0 89.8314,7.33363 125.168,22.0009 35.3327,14.6673 63.4997,38.164 84.4972,70.4976 21.0012,32.5015 31.5018,72.3329 31.5018,120.001 0,39.9993 -9.00104,75.332 -27.1673,105.834 -17.9984,30.6662 -42.6664,52.1673 -73.8324,64.6673 -31.3339,12.6641 -64.8351,13.164 -100.668,1.83154 -17.8342,-6.49806 -34.333,-14.6673 -49.3323,-24.1682 -14.9993,-9.66503 -28.9988,-21.6652 -42.1665,-35.9967 -13.1677,-14.3353 -23.5004,-31.8338 -31.0019,-52.6671 -7.49776,-20.8333 -11.3324,-44.0018 -11.3324,-69.3338l0 -196.833c52.835,-3.83468 84.1652,-5.83408 94.3338,-5.83408z"
   id="glyph16" />&#10;   <glyph
   unicode="c"
   horiz-adv-x="615"
   d="M585.001 141.667l7.33363 -4.99851c-7.50149,-13.6676 -15.667,-26.5033 -24.5001,-38.4997 -8.66905,-12.0001 -20.1694,-25 -34.1689,-38.8354 -13.9996,-13.8317 -28.8309,-25.6677 -44.6658,-35.3327 -15.8311,-9.83289 -34.5009,-18.0021 -56.1661,-24.5001 -21.6652,-6.50179 -44.3338,-9.66503 -67.9984,-9.83289 -49.1682,0.16786 -94.3338,9.5009 -135.336,28.3311 -40.999,19.0018 -75.332,44.6695 -102.831,77.0031 -27.4993,32.3336 -48.8324,70.3335 -63.8354,114 -15.1671,43.6661 -22.8327,90.1671 -22.8327,139.667 0,65.3312 12.9999,125.5 38.8354,180.33 25.8318,54.8344 61.8323,98.5004 107.998,130.666 46.0012,32.1695 97.0009,48.3363 153.003,48.3363 32.1658,0 62.832,-5.16637 91.4988,-15.335 28.8309,-10.3327 52.4993,-23.0006 70.8333,-38.3318 18.4982,-15.335 32.8335,-31.5018 43.4982,-48.3363 10.5006,-16.9987 15.8348,-32.6656 15.8348,-46.9972 0,-11.6682 -4.16667,-21.6689 -12.6679,-30.1664 -8.49746,-8.50119 -18.4982,-12.6679 -30.3342,-12.6679 -11.6644,0 -21.6652,4.16667 -29.9985,12.6679 -8.33333,8.49746 -12.5,18.4982 -12.5,30.1664 -0.16786,16.9987 -3.16697,33.3333 -8.50119,49.1644 -5.3305,15.8348 -13.164,30.6662 -23.6646,44.5016 -10.3327,13.8317 -24.5001,24.8321 -42.5022,33.3333 -17.8305,8.50119 -38.3318,12.6679 -61.4966,12.6679 -44.5016,0 -84.3368,-15.667 -119.17,-47.0009 -34.8329,-31.5018 -61.5003,-73.6683 -79.9985,-126.835 -18.6661,-52.9991 -27.835,-111.664 -27.835,-176.164 0,-65.1671 9.66876,-123.836 29.0025,-176.335 19.3338,-52.3314 48.5004,-94.3338 87.1643,-126 38.6676,-31.4981 84.001,-47.3329 135.836,-47.3329 23.3326,0 45.6655,3.16697 66.9987,9.5009 21.3332,6.33393 39.6673,14.3315 54.6665,24.0003 15.1671,9.49717 29.4987,21.1653 42.9984,34.665 13.4997,13.4997 24.336,25.9997 32.5015,37.5 8.16547,11.6682 15.8348,24.0003 23.0006,37.0001z"
   id="glyph17" />&#10;   <glyph
   unicode="e"
   horiz-adv-x="546"
   d="M348.668 9.33303c14.9993,0 28.6668,1.16756 41.1668,3.33483 12.6641,2.33139 23.4967,5.16637 32.8298,8.83318 9.1689,3.49896 17.5022,8.66532 24.8359,15.3312 7.33363,6.66592 13.4997,12.9999 18.3341,18.8339 4.83065,5.83408 9.16517,13.8354 12.6641,23.6683 3.66682,9.99702 6.33393,18.6661 8.33333,26.1638 1.9994,7.50149 3.66682,17.1665 5.16637,29.3345 1.33542,12.0001 2.33512,22.0009 2.83497,30.1664 0.499851,8.1692 1.16756,19.0018 1.66741,32.3336l0 0.499851 9.33303 0 -9.33303 -197.833 -471.669 0 0 9.33303c20.3335,0 35.1686,1.9994 44.6695,6.00194 9.66503,4.16667 16.8308,12.5 21.4973,25.4999 4.83438,12.832 7.1695,32.4978 7.1695,59.333l0 497.497c0,26.6674 -2.33512,46.501 -7.1695,59.3368 -4.66652,12.832 -11.8323,21.3332 -21.4973,25.332 -9.5009,4.16667 -24.336,6.16607 -44.6695,6.16607l0 9.33303c38.4997,0 112.336,-0.16786 221.669,-0.33199 109.497,-0.16786 186,0 229.499,0.33199l9.33303 -197.833 -9.33303 0c-0.499851,13.3318 -1.16756,24.1682 -1.83154,32.1658 -0.667711,8.1692 -1.83527,18.3341 -3.16697,30.3342 -1.49955,12.0001 -3.33483,21.833 -5.50209,29.4987 -1.9994,7.66935 -4.99851,16.3347 -8.66532,26.1676 -3.83468,9.83289 -8.16547,17.6664 -12.9999,23.6683 -4.83438,5.99821 -11.0004,12.3321 -18.3341,18.9981 -7.33363,6.66592 -15.4991,11.8323 -24.668,15.4991 -8.99731,3.50269 -19.8336,6.50179 -32.1658,8.66905 -12.3321,2.33139 -25.8318,3.49896 -40.4991,3.49896l-157.334 0 0 -310.501 103.167 0c35.6647,0 59.8329,5.66622 72.165,17.3344 12.3359,11.5003 18.6698,30.3342 18.6698,56.3339l9.16517 0 0 -218.834 -9.16517 0c0,25.4999 -1.00343,45.8333 -3.00283,61.1683 -1.9994,15.1634 -6.16607,28.9988 -12.5,41.1631 -6.33393,12.168 -15.4991,20.8333 -27.4993,26.0034 -12.168,4.99851 -27.9991,7.49776 -47.8327,7.49776l-103.167 0 0 -359.333 177.835 0z"
   id="glyph18" />&#10;   <glyph
   unicode="i"
   horiz-adv-x="268"
   d="M24.8349 697.836l218.834 0 0 -9.33658c-20.1703,0 -34.999,-2.00123 -44.5011,-6.16922 -9.33658,-3.99494 -16.4989,-12.4964 -21.1709,-25.3314 -4.66453,-12.835 -7.16231,-32.6668 -7.16231,-59.3298l0 -497.502c0,-26.8361 2.49778,-46.5024 7.16231,-59.3373 4.67205,-12.993 11.8344,-21.3289 21.1709,-25.4969 9.5021,-4.00247 24.3308,-5.99618 44.5011,-5.99618l0 -9.33658 -218.834 0 0 9.33658c20.3283,0 35.1645,1.99371 44.6666,5.99618 9.66761,4.16798 16.8299,12.5039 21.502,25.4969 4.83005,12.835 7.16231,32.5012 7.16231,59.3373l0 497.502c0,26.6631 -2.33227,46.4948 -7.16231,59.3298 -4.67205,12.835 -11.8344,21.3365 -21.502,25.3314 -9.5021,4.16798 -24.3383,6.16922 -44.6666,6.16922l0 9.33658z"
   id="glyph19" />&#10;   <glyph
   unicode="l"
   horiz-adv-x="478"
   d="M300.832 9.33303c14.6673,0 28.167,1.16756 40.5028,3.33483 12.3321,2.33139 23.1647,5.16637 32.1658,8.83318 9.16517,3.49896 17.3344,8.66532 24.668,15.3312 7.3299,6.66592 13.4997,12.9999 18.3303,19.0018 4.83438,6.16607 9.1689,13.9996 12.9999,23.8324 3.66682,9.66503 6.66965,18.3341 8.66905,25.9997 2.16726,7.66562 3.99881,17.5022 5.49836,29.6665 1.33542,12.0001 2.49925,22.0009 3.16697,30.1664 0.667711,8.1692 1.16756,18.8339 1.83527,32.3336l9.33303 0 -9.33303 -197.833 -422.836 0 0 9.33303c20.1694,0 35.1686,1.9994 44.6695,6.00194 9.66503,4.16667 16.8308,12.5 21.4973,25.4999 4.83438,12.832 7.1695,32.4978 7.1695,59.333l0 497.497c0,26.6674 -2.33512,46.501 -7.1695,59.3368 -4.66652,12.832 -11.8323,21.3332 -21.4973,25.332 -9.5009,4.16667 -24.5001,6.16607 -44.6695,6.16607l0 9.33303 218.834 0 0 -9.33303c-20.1656,0 -35.0007,-1.9994 -44.4979,-6.16607 -9.33303,-3.99881 -16.5025,-12.5 -21.1691,-25.332 -4.83065,-12.8357 -7.16577,-32.6694 -7.16577,-59.3368l0 -588.332 128.999 0z"
   id="glyph20" />&#10;   <glyph
   unicode="n"
   horiz-adv-x="618"
   d="M384.335 688.5l0 9.33658 218.669 0 0 -9.33658c-15.8368,0 -29.5069,-1.00062 -40.5062,-3.16737 -10.9993,-2.16675 -21.833,-6.16922 -32.1627,-12.1654 -10.5027,-6.16922 -18.3346,-15.3328 -23.6687,-27.8367 -5.49963,-12.6619 -8.16293,-28.4988 -8.16293,-47.661l0 -540.506c31.3276,-31.9972 64.6639,-47.8265 100.167,-47.8265l0 -9.33658c-21.833,0 -41.8378,1.6702 -59.8339,4.83005 -18.0036,3.33288 -35.1721,9.00555 -51.3324,17.1685 -16.0023,8.17045 -30.673,17.334 -43.8391,27.4982 -13.166,10.3372 -26.4975,24.3383 -39.8291,42.0033 -13.3391,17.8305 -25.5044,35.8341 -36.3382,54.0032 -10.9993,18.1616 -22.8336,41.4993 -35.6611,69.8325 -12.835,28.3333 -25.0004,56.1624 -36.1727,83.6606 -11.1648,27.5057 -24.3308,61.1731 -39.3325,100.837 -26.6631,69.998 -49.6622,124.167 -68.9974,162.499 -19.5007,38.1664 -38.836,66.8382 -58.5022,86.1659l0 -548.331c0,-19.3352 2.83634,-35.1645 8.17045,-47.6685 5.33412,-12.4964 13.3315,-21.833 23.8342,-27.8292 10.6607,-6.0037 21.4945,-10.1717 32.4937,-12.1729 11.1723,-2.16675 24.6693,-3.15984 40.5062,-3.15984l0 -9.33658 -218.669 0 0 9.33658c16.0023,0 29.4994,0.993093 40.4987,3.15984 10.9993,2.00123 21.833,6.16922 32.1702,12.1729 10.4952,5.99618 18.3271,15.3328 23.6612,27.8292 5.49963,12.5039 8.17045,28.3333 8.17045,47.6685l0 556.501c-26.001,21.1634 -60.8345,31.8317 -104.501,31.8317l0 9.33658c15.3328,0 28.0022,-0.338555 38.0009,-0.835101 10.1642,-0.50407 22.164,-1.6702 35.9996,-3.33288 13.8356,-1.83572 25.4969,-4.49901 35.3301,-8.17045 9.83313,-3.4984 21.0054,-8.50148 33.5019,-15.1672 12.5039,-6.50025 23.6687,-14.1666 33.3363,-23.3302 9.83313,-9.16354 20.4938,-20.5014 31.9972,-34.1639 11.6688,-13.6701 22.5026,-29.3339 32.5012,-47.0064 10.1642,-17.4995 20.6669,-37.9933 31.5006,-61.4966 10.9993,-23.3302 21.833,-49.4967 32.5012,-78.003 2.99433,-8.16293 9.99865,-27.3326 20.9979,-57.6671 10.9993,-30.327 19.3352,-52.664 24.6693,-67.1617 5.32659,-14.5052 13.6626,-35.5031 25.1659,-63.0012 11.3303,-27.4982 21.4945,-49.6697 30.1615,-66.6652 8.83251,-16.8374 19.3352,-35.1721 31.5006,-54.8383 12.3384,-19.6663 24.5038,-36.4962 37.0003,-50.1663l0 530.839c0,19.1622 -2.82881,34.999 -8.16293,47.661 -5.33412,12.5039 -13.3391,21.6675 -23.8342,27.8367 -10.6682,5.99618 -21.502,9.99865 -32.5012,12.1654 -11.1648,2.16675 -24.6693,3.16737 -40.4987,3.16737z"
   id="glyph21" />&#10;   <glyph
   unicode="o"
   horiz-adv-x="728"
   d="M200.665 659.835c50.1663,32.1627 104.666,48.165 163.665,48.165 58.8333,0 113.333,-16.0023 163.507,-48.165 50.1663,-32.0047 89.8298,-75.6707 118.833,-130.833 29.1608,-55.1694 43.8315,-115.334 43.8315,-180.337 0,-65.168 -14.6707,-125.167 -43.8315,-180.164 -29.0028,-55.0038 -68.6664,-98.6699 -118.833,-130.667 -50.1738,-32.0047 -104.674,-47.9995 -163.507,-47.9995 -58.9988,0 -113.499,15.9948 -163.665,47.9995 -50.1663,31.9972 -89.6643,75.6632 -118.833,130.667 -29.1684,54.9963 -43.666,114.996 -43.666,180.164 0,65.0025 14.4977,125.167 43.666,180.337 29.1684,55.1618 68.6664,98.8278 118.833,130.833zm163.665 -660.836c45.8403,0 88.1671,15.4983 126.838,46.6679 38.836,30.9966 69.5015,73.4964 92.1696,127.169 22.4951,53.6647 33.8329,112.332 33.8329,175.83 0,63.4978 -11.3378,122 -33.8329,175.665 -22.6681,53.8377 -53.3336,96.3376 -92.1696,127.5 -38.6705,31.3351 -80.9973,46.8334 -126.838,46.8334 -45.9983,0 -88.3327,-15.4983 -127.327,-46.8334 -38.836,-31.1621 -69.667,-73.662 -92.1696,-127.5 -22.6681,-53.6647 -33.9984,-112.167 -33.9984,-175.665 0,-47.503 6.66576,-92.8317 19.9973,-136.001 13.3315,-43.1619 31.5006,-80.3352 54.1687,-111.663 22.8336,-31.1696 49.8352,-56.0045 81.1628,-74.3391 31.1696,-18.5001 63.8364,-27.6637 98.1658,-27.6637z"
   id="glyph22" />&#10;   <glyph
   unicode="p"
   horiz-adv-x="556"
   d="M289 708.001c164.167,0 246.165,-51.4996 246.165,-154.834 0,-17.4985 -2.33139,-33.5012 -7.16577,-48.0006 -4.66652,-14.4994 -10.5006,-26.8315 -17.6664,-36.8323 -7.16577,-10.1686 -16.6667,-19.3338 -28.167,-27.6671 -11.5003,-8.33333 -22.5007,-14.8351 -32.9976,-19.8336 -10.3365,-4.83438 -23.0006,-9.5009 -37.9999,-13.8317 -15.003,-4.33453 -27.503,-7.66935 -37.6679,-9.83662 -10.0007,-1.9994 -22.5007,-4.49866 -37.0001,-7.3299 -14.6673,-2.66711 -25.332,-4.67025 -31.8338,-6.00194 -37.6679,-8.50119 -69.5016,-28.499 -95.1656,-60.1649 -25.6677,-31.5018 -38.6676,-72.1688 -38.6676,-122.001l0 -101.5c0,-26.8353 2.49925,-46.501 7.16577,-59.333 4.66652,-12.9999 11.836,-21.3332 21.1691,-25.4999 9.49717,-4.00254 24.3323,-6.00194 44.4979,-6.00194l0 -9.33303 -218.834 0 0 9.33303c20.3335,0 35.1686,1.9994 44.6695,6.00194 9.66503,4.16667 16.8308,12.5 21.4973,25.4999 4.83438,12.832 7.1695,32.4978 7.1695,59.333l0 -0.999702 0 498.497c0,26.6674 -2.33512,46.501 -7.1695,59.3368 -4.66652,12.832 -11.8323,21.3332 -21.4973,25.332 -9.5009,4.16667 -24.336,6.16607 -44.6695,6.16607l0 9.33303 73.3363 0 0 0c17.4985,0 48.6646,1.66741 93.4982,5.00224 44.8336,3.49896 77.1673,5.16637 97.3329,5.16637zm13.3356 -315.503c18.1662,4.66652 33.3333,9.00104 45.4976,13.3356 12.3321,4.16667 26.3354,10.5006 42.0024,18.9981 15.8311,8.50119 28.499,17.8342 38.164,28.3348 9.66876,10.3327 17.6664,24.0003 24.336,40.999 6.66592,16.8345 9.99702,36.1683 9.99702,57.6656 0,22.6686 -3.49896,42.8342 -10.5006,60.5006 -6.99791,17.5022 -15.999,31.6697 -27.3314,42.1665 -11.1683,10.6685 -24.668,19.3338 -40.1671,26.1676 -15.667,6.83378 -31.1661,11.5003 -46.6652,14.1674 -15.5028,2.66711 -31.6697,3.83468 -48.6683,3.83468 -22.3329,0 -61.8323,-2.16726 -118.166,-6.83378l0 -423.336c10.1649,33.6691 27.1673,60.6685 51.1676,81.3339 23.8324,20.6692 50.664,35.0007 80.3342,42.6664z"
   id="glyph23" />&#10;   <glyph
   unicode="r"
   horiz-adv-x="612"
   d="M526.332 84.5009c1.33542,-12.0001 3.00283,-22.0009 5.1701,-29.8344 2.16353,-7.83348 5.49836,-15.4991 9.99702,-23.1647 4.50239,-7.66935 11.1683,-13.3356 20.0015,-16.8345 8.83318,-3.66682 19.6658,-5.33423 32.6656,-5.33423l0 -9.33303 -137.664 0c0,12.0001 -0.335721,25.332 -1.00343,39.8351 -0.499851,14.4994 -2.33139,33.8332 -4.99851,58.3333 -2.83497,24.3323 -6.33393,47.6649 -10.8326,69.9978 -4.33453,22.3329 -10.8326,45.5013 -19.5016,69.6658 -8.66532,24.0003 -18.4982,44.8336 -29.8306,62.5 -11.1683,17.5022 -25.6677,32.0016 -43.3341,43.5019 -17.8342,11.3324 -37.5,16.9987 -58.8332,16.9987 -35.8326,0 -64.4994,-15.8311 -86.0004,-47.3329 0,-0.33199 -0.335721,-0.831841 -0.667711,-1.49955 -0.499851,-0.667711 -0.999702,-1.16756 -1.33169,-1.49955 -0.335721,-0.335721 -0.667711,-0.835571 -0.999702,-1.66741 -0.335721,-0.831841 -0.667711,-1.33169 -0.835571,-1.66741 -18.3341,-30.6662 -27.4993,-65.8311 -27.4993,-105.498l0 -101.5c0,-26.8353 2.49925,-46.501 7.16577,-59.333 4.66652,-12.9999 11.836,-21.3332 21.1691,-25.4999 9.49717,-4.00254 24.3323,-6.00194 44.4979,-6.00194l0 -9.33303 -218.834 0 0 9.33303c20.3335,0 35.1686,1.9994 44.6695,6.00194 9.66503,4.16667 16.8308,12.5 21.4973,25.4999 4.83438,12.832 7.1695,32.4978 7.1695,59.333l0 497.497c0,26.6674 -2.33512,46.501 -7.1695,59.3368 -4.66652,12.832 -11.8323,21.3332 -21.4973,25.332 -9.5009,4.16667 -24.336,6.16607 -44.6695,6.16607l0 9.33303 73.3363 0c17.4985,0 48.6646,1.66741 93.4982,5.00224 44.8336,3.49896 77.1673,5.16637 97.3329,5.16637 164.167,0 246.165,-51.4996 246.165,-154.834 0,-17.4985 -2.33139,-33.5012 -7.16577,-48.0006 -4.66652,-14.4994 -10.5006,-26.8315 -17.6664,-36.8323 -7.16577,-10.1686 -16.6667,-19.3338 -28.167,-27.6671 -11.5003,-8.33333 -22.5007,-14.8351 -32.9976,-19.8336 -10.3365,-4.83438 -23.0006,-9.5009 -37.9999,-13.8317 -15.003,-4.33453 -27.503,-7.66935 -37.6679,-9.83662 -10.0007,-1.9994 -22.5007,-4.49866 -37.0001,-7.3299 -14.6673,-2.66711 -25.332,-4.67025 -31.8338,-6.00194 -15.667,-3.66682 -29.8344,-8.83318 -42.4985,-15.667 15.999,5.16637 33.9973,7.83348 54.1667,7.83348 22.165,0 42.4985,-3.16697 61.1646,-9.33303 18.5019,-6.16607 34.5009,-14.3315 47.8327,-24.3323 13.3356,-10.1686 25.3357,-22.8327 36.1683,-38.1677 10.6647,-15.335 19.4979,-30.9982 26.4996,-47.165 7.00164,-16.0027 13.1677,-34.5009 18.3341,-55.1701 5.16637,-20.6655 9.33303,-39.8314 12.1643,-57.8298 3.00283,-17.8342 5.66995,-37.6679 7.83348,-59.5009zm-335.333 228.499c25,40.335 62.168,66.8345 111.336,79.4987 18.1662,4.66652 33.3333,9.00104 45.4976,13.3356 12.3321,4.16667 26.3354,10.5006 42.0024,18.9981 15.8311,8.50119 28.499,17.8342 38.164,28.3348 9.66876,10.3327 17.6664,24.0003 24.336,40.999 6.66592,16.8345 9.99702,36.1683 9.99702,57.6656 0,22.6686 -3.49896,42.8342 -10.5006,60.5006 -6.99791,17.5022 -15.999,31.6697 -27.3314,42.1665 -11.1683,10.6685 -24.668,19.3338 -40.1671,26.1676 -15.667,6.83378 -31.1661,11.5003 -46.6652,14.1674 -15.5028,2.66711 -31.6697,3.83468 -48.6683,3.83468 -22.3329,0 -61.8323,-2.16726 -118.166,-6.83378l0 -423.336c4.99851,16.3347 11.3324,30.8341 19.1659,43.5019 0,0.33199 0.16786,0.499851 0.499851,0.499851 0.335721,0 0.499851,0.16786 0.499851,0.499851z"
   id="glyph24" />&#10;   <glyph
   unicode="s"
   horiz-adv-x="611"
   d="M273.003 442.333c56.9975,-16.1679 105.328,-33.8329 144.999,-53.0026 39.6636,-18.9967 70.9987,-39.498 93.6668,-61.6621 22.8336,-22.1716 39.167,-45.0052 49.1657,-68.6664 9.83313,-23.5032 14.8287,-49.5042 14.8287,-77.8375 0,-39.6636 -11.3303,-74.3315 -34.1639,-103.996 -22.8336,-29.6649 -51.6634,-51.671 -86.4969,-66.0031 -34.8335,-14.3321 -72.3378,-21.3289 -112.671,-21.4945 -54.6653,0.165516 -105.667,6.9968 -152.831,20.6594 -47.1644,13.6701 -82.502,29.6724 -105.998,48.3381l-33.6674 274.831 9.16354 0c10.5027,-53.9957 18.3346,-90.4994 23.5032,-109.331 38.1664,-135.836 112.498,-210.167 223.168,-223.168 11.6613,-1.33165 23.9998,-2.00123 36.6617,-2.00123 26.332,0 50.3318,4.66453 71.9993,14.0011 21.6675,9.16354 39.167,21.502 52.5061,36.4962 13.3315,15.1672 23.4957,31.8392 30.6655,50.1663 7.16231,18.1691 10.8337,36.6692 10.8337,55.6734 0,46.4948 -19.8393,88.1671 -59.3373,124.994 -39.498,36.6692 -98.1658,66.4996 -175.996,89.3333 -33.0053,9.66761 -60.5035,18.8387 -82.833,27.3326 -22.3371,8.50148 -42.4999,17.8381 -60.8345,28.0022 -18.1691,10.3372 -32.3357,21.3365 -42.6654,32.9978 -10.1717,11.6688 -18.0036,25.0004 -23.5032,40.0021 -5.33412,15.0017 -7.99741,32.3357 -7.99741,51.8365 0,42.9964 19.5007,79.9967 58.6602,111.332 39.0015,31.1696 89.8373,46.8334 152.335,46.8334 35.8341,0 75.1666,-5.66515 118.336,-16.8374 43.1695,-11.1648 78.334,-22.9991 105.667,-35.3301l32.3357 -197.836 -9.33658 0c-3.82943,20.1703 -9.83313,40.6717 -17.8305,61.5041 -8.00494,20.8324 -19.0042,42.1689 -33.1708,64.0019 -14.1666,21.833 -30.1615,41.1607 -48.165,57.8326 -17.8305,16.8299 -39.6636,30.5 -65.3335,41.3338 -25.6624,10.6607 -53.3336,15.9948 -82.502,15.9948 -46.6603,0 -82.1634,-11.9999 -106.667,-36.3307 -24.6618,-24.1653 -37.0003,-52.8296 -37.0003,-85.6694 0,-23.1647 4.3335,-42.1613 12.835,-57.3286 8.33597,-15.1672 23.5032,-29.0028 45.1707,-41.3338 21.4945,-12.3384 52.333,-24.1653 92.5006,-35.6686z"
   id="glyph25" />&#10;   <glyph
   unicode="t"
   horiz-adv-x="538"
   d="M29.3339 697.836l479.499 0 9.17107 -197.836 -9.17107 0c-1.00062,21.1634 -3.00185,40.1676 -5.83066,56.832 -3.00185,16.8374 -7.8319,33.6674 -14.6707,50.8359 -6.83128,17.1685 -15.4983,31.1621 -26.001,42.4999 -10.3297,11.1648 -24.1653,20.3358 -41.4993,27.4982 -17.161,7.16983 -37.1658,10.8337 -59.9994,10.8337l-55.1618 0 0 -588.333c0,-26.8361 2.33227,-46.5024 7.16231,-59.3373 4.66453,-12.993 11.6688,-21.3289 21.1709,-25.4969 9.49458,-4.00247 24.1653,-5.99618 44.4936,-5.99618l0 -9.33658 -218.827 0 0 9.33658c20.1628,0 34.999,1.99371 44.4936,5.99618 9.33658,4.16798 16.5064,12.5039 21.1709,25.4969 4.66453,12.835 7.16231,32.5012 7.16231,59.3373l0 588.333 -55.1618 0c-22.8336,0 -42.8384,-3.66391 -60.1649,-10.8337 -17.1685,-7.16231 -31.0041,-16.3334 -41.5068,-27.4982 -10.3297,-11.3378 -18.9967,-25.3314 -25.828,-42.4999 -6.8388,-17.1685 -11.6688,-33.9984 -14.6707,-50.8359 -2.99433,-16.6644 -4.83005,-35.6686 -5.83066,-56.832l-9.33658 0 9.33658 197.836z"
   id="glyph26" />&#10;   <glyph
   unicode="u"
   horiz-adv-x="660"
   d="M433.169 697.836l218.661 0 0 -9.33658c-15.9948,0 -29.4994,-1.00062 -40.4987,-3.16737 -10.9993,-2.16675 -21.833,-6.16922 -32.1627,-12.1654 -10.5027,-6.16922 -18.3346,-15.3328 -23.6687,-27.8367 -5.49963,-12.6619 -8.17045,-28.4988 -8.17045,-47.661l0 -440.505c0,-54.6653 -18.1616,-96.1646 -54.3267,-124.663 -36.3382,-28.4988 -87.1665,-42.6654 -152.673,-42.8309 -88.1671,0.165516 -151.326,13.9936 -189.5,41.8303 -37.9933,27.8292 -56.9975,69.667 -56.9975,125.664l0 440.505c0,26.6631 -2.49778,46.4948 -7.16231,59.3298 -4.67205,12.835 -11.8344,21.3365 -21.1709,25.3314 -9.5021,4.16798 -24.3308,6.16922 -44.5011,6.16922l0 9.33658 218.834 0 0 -9.33658c-20.3283,0 -34.999,-2.00123 -44.5011,-6.16922 -9.49458,-3.99494 -16.4989,-12.4964 -21.3289,-25.3314 -4.67205,-12.835 -7.00432,-32.6668 -7.00432,-59.3298l0 -440.505c0,-48.8346 16.1679,-87.332 48.3381,-115.665 32.1627,-28.3333 80.9973,-42.4999 146.496,-42.4999 32.5012,0 61.8351,5.66515 87.8361,16.8374 26.001,11.3303 47.3299,29.1608 63.8288,53.4991 16.3334,24.3308 24.6693,53.6647 24.6693,87.8286l0 440.505c0,19.1622 -2.83634,34.999 -8.16293,47.661 -5.33412,12.5039 -13.3391,21.6675 -23.8342,27.8367 -10.6682,5.99618 -21.502,9.99865 -32.5012,12.1654 -11.1648,2.16675 -24.6693,3.16737 -40.4987,3.16737l0 9.33658z"
   id="glyph27" />&#10;   <glyph
   unicode="ó"
   horiz-adv-x="728"
   d="M200.668 659.833c50.1641,32.1658 104.667,48.1685 163.664,48.1685 58.8369,0 113.336,-16.0027 163.503,-48.1685 50.1641,-31.9979 89.8314,-75.6677 118.83,-130.834 29.1667,-55.1664 43.8339,-115.331 43.8339,-180.33 0,-65.1671 -14.6673,-125.168 -43.8339,-180.17 -28.9988,-54.9985 -68.6661,-98.6646 -118.83,-130.666 -50.1679,-31.9979 -104.667,-47.9969 -163.503,-47.9969 -58.9973,0 -113.5,15.999 -163.664,47.9969 -50.1679,32.0016 -89.6673,75.6677 -118.834,130.666 -29.1667,55.0022 -43.6661,115.003 -43.6661,180.17 0,64.9993 14.4994,125.164 43.6661,180.33 29.1667,55.1664 68.6661,98.8362 118.834,130.834zm163.664 -660.833c45.8333,0 88.1677,15.4991 126.835,46.6652 38.8317,31.0019 69.5016,73.5004 92.1665,127.167 22.5007,53.6668 33.8332,112.332 33.8332,175.836 0,63.4997 -11.3324,121.997 -33.8332,175.664 -22.6649,53.8347 -53.3348,96.3332 -92.1665,127.499 -38.6676,31.3339 -81.0019,46.8368 -126.835,46.8368 -45.9975,0 -88.3318,-15.5028 -127.331,-46.8368 -38.8317,-31.1661 -69.6658,-73.6646 -92.1665,-127.499 -22.6686,-53.6668 -34.001,-112.164 -34.001,-175.664 0,-47.5007 6.66592,-92.8342 20.0015,-136 13.3318,-43.1662 31.4981,-80.3342 54.1667,-111.668 22.8327,-31.1661 49.8321,-55.9982 81.1661,-74.3323 31.1661,-18.5019 63.8317,-27.6671 98.1647,-27.6671zm108.837 811.5c0,-15.4991 -3.00283,-27.9991 -9.00104,-37.3321 -6.00194,-9.1689 -13.3356,-15.5028 -22.0009,-18.8339 -8.66532,-3.16697 -17.3344,-5.83408 -25.8318,-8.00134 -8.66905,-2.16726 -16.0027,-5.33423 -22.0009,-9.5009 -6.00194,-4.16667 -9.00104,-10.5006 -9.00104,-18.4982l-9.33303 0c0,7.99761 3.99881,21.3332 12.168,39.4994 8.16547,18.1662 12.1643,35.8326 12.1643,52.6671l72.8365 0z"
   id="glyph28" />&#10;  </font>
</defs>
</svg>
